Invalid time format (Cue Sheet)

Music Converter | CD Ripper | Disc Burner
General discussion / Request help

Moderator: poiko

Post Reply
ElimGarak
Bronze
Bronze
Posts: 56
Joined: Fri Aug 08, 2008 12:56 pm
Contact:

Invalid time format (Cue Sheet)

Post by ElimGarak » Tue May 19, 2020 5:36 pm

Hello!
I have a couple of cue sheets that give me this error.

Here's one. When I try to import it in EZCD, I get "Error in line 25: Invalid time format". I've highlighted the line in bold.
Thank you!

TITLE "Festival '84"
FILE "Festival '84.flac" WAVE
TRACK 01 AUDIO
TITLE "Serenata"
PERFORMER "TOTO CUTUGNO"
FLAGS DCP
INDEX 01 00:00:00
TRACK 02 AUDIO
TITLE "Walkin'"
PERFORMER "DHUO"
FLAGS DCP
INDEX 01 03:46:27
TRACK 03 AUDIO
TITLE "Per una bambola"
PERFORMER "PATTY PRAVO"
FLAGS DCP
INDEX 01 07:47:64
TRACK 04 AUDIO
TITLE "Nuovo swing"
PERFORMER "ENRICO RUGGERI"
FLAGS DCP
INDEX 01 11:04:87
TRACK 05 AUDIO
TITLE "Se ti spogli"
PERFORMER "GIORGIA FIORIO"
FLAGS DCP
INDEX 01 15:16:06
TRACK 06 AUDIO
TITLE "Un amore grande"
PERFORMER "PUPO"
FLAGS DCP
INDEX 01 18:53:37
TRACK 07 AUDIO
TITLE "Under The Sun"
PERFORMER "ROCKETS"
FLAGS DCP
INDEX 01 22:37:79
TRACK 08 AUDIO
TITLE "Ci sara'"
PERFORMER "AL BANO E ROMINA POWER"
FLAGS DCP
INDEX 01 26:30:54
TRACK 09 AUDIO
TITLE "Quanto ti amo"
PERFORMER "COLLAGE"
FLAGS DCP
INDEX 01 29:58:48
TRACK 10 AUDIO
TITLE "Chi (mi dara')"
PERFORMER "IVA ZANICCHI"
FLAGS DCP
INDEX 01 33:15:03
TRACK 11 AUDIO
TITLE "Regalami un sorriso"
PERFORMER "DRUPI"
FLAGS DCP
INDEX 01 36:48:28
TRACK 12 AUDIO
TITLE "Non voglio mica la luna"
PERFORMER "FLAVIA FORTUNATO"
FLAGS DCP
INDEX 01 40:45:91
TRACK 13 AUDIO
TITLE "Io e te"
PERFORMER "JAIR RODRIGUES con JAIRZINHO"
FLAGS DCP
INDEX 01 44:47:23
TRACK 14 AUDIO
TITLE "Nightline"
PERFORMER "RANDY CRAWFORD"
FLAGS DCP
INDEX 01 48:57:51

User avatar
poiko
Site Admin
Site Admin
Posts: 4124
Joined: Sat Mar 11, 2006 8:31 pm
Location: https://www.poikosoft.com
Contact:

Re: Invalid time format

Post by poiko » Tue May 19, 2020 9:18 pm

Cue Sheet Time Formats should be mm:ss:ff

m = minute
s = second
f = frame, 1/75th second

INDEX 01 11:04:87 is invalid because frame value is 87, max is 74

Whatever created this file did the time format wrong.

ElimGarak
Bronze
Bronze
Posts: 56
Joined: Fri Aug 08, 2008 12:56 pm
Contact:

Re: Invalid time format

Post by ElimGarak » Tue May 19, 2020 10:48 pm

Thank you so much, I'll correct that manually. :-)

Post Reply