Any chance for log checksums like in EAC?

Request new software features

Moderator: poiko

Post Reply
Pathduck
Bronze
Bronze
Posts: 35
Joined: Sun Jan 25, 2009 5:04 pm
Contact:

Any chance for log checksums like in EAC?

Post by Pathduck » Mon Aug 27, 2018 12:49 am

I use some sites where the accuracy of CD rips are very important - for (ahem) various reasons... :mrgreen:

These sites force the use of EAC because this is about the only Windows software that creates these logs, with checksums, to detect any editing of logs after the rip is done.

Maybe unnecessary you may say -- but I've tried to make the guys on these sites consider EZCD as well, because I know it creates good quality rips. And EAC is a horribly slow method of ripping music, I have to spend 30-40 minutes to rip a CD which in EZCD takes 5 minutes, in the exact same quality... It's also a mess to configure and not user-friendly at all (I hate it) :cry:

Any chance we can have these logs as well in EZCD? Like this below, example, a checksum of the entire log file:

Code: Select all

==== Log checksum BC7E7A7A4171CFDB635029CAC0020DFEE651121E3F08C3AB764CEE80E4D59564 ====

ddr
New User
Posts: 5
Joined: Wed Dec 14, 2016 9:54 pm
Contact:

Re: Any chance for log checksums like in EAC?

Post by ddr » Sat Dec 28, 2019 7:04 pm

Would someone please respond to this question...I have been subscribed to this thread since 2018 hoping someone would answer his question. Thanks.

User avatar
poiko
Site Admin
Site Admin
Posts: 4305
Joined: Sat Mar 11, 2006 8:31 pm
Location: https://www.poikosoft.com
Contact:

Re: Any chance for log checksums like in EAC?

Post by poiko » Mon Dec 30, 2019 9:54 pm

It can be something to be implemented. I am continuously improving the Software.

It will also require checksum validation via a form at https://www.poikosoft.com

ddr
New User
Posts: 5
Joined: Wed Dec 14, 2016 9:54 pm
Contact:

Re: Any chance for log checksums like in EAC?

Post by ddr » Sun Jan 24, 2021 5:51 am

Happy new year 2021. Was just checking to see if we had an update on this. Thanks.

ddr
New User
Posts: 5
Joined: Wed Dec 14, 2016 9:54 pm
Contact:

Re: Any chance for log checksums like in EAC?

Post by ddr » Wed May 12, 2021 12:23 am

Still an important feature that is missing. In response to your checksum validation @poiko, may I suggest you also include a little utility like EAC's CheckLog.exe that can be used as an offline validator (say from the command line). This way it can be integrated. I have attached a copy of an EAC log so you can see the checksum and other information that is included. (it's at the end). I do like how CueTools has also been included in the log to verify community scoring of rip accuracy. You might consider this as well.

Code: Select all

Exact Audio Copy V1.6 from 23. October 2020

EAC extraction logfile from 10. May 2021, 20:13

Carl Doy / Piano By Candlelight (Disc 2)

Used drive  : HL-DT-STBD-RE  WH16NS60   Adapter: 1  ID: 0

Read mode               : Secure
Utilize accurate stream : Yes
Defeat audio cache      : Yes
Make use of C2 pointers : Yes

Read offset correction                      : 6
Overread into Lead-In and Lead-Out          : No
Fill up missing offset samples with silence : Yes
Delete leading and trailing silent blocks   : No
Null samples used in CRC calculations       : Yes
Used interface                              : Native Win32 interface for Win NT & 2000
Gap handling                                : Appended to previous track

Used output format              : User Defined Encoder
Selected bitrate                : 1024 kBit/s
Quality                         : High
Add ID3 tag                     : No
Command line compressor         : C:\Program Files (x86)\Exact Audio Copy\FLAC\FLAC.EXE
Additional command line options : -8 -V -T "ARTIST=%artist%" -T "TITLE=%title%" -T "ALBUM=%albumtitle%" -T "DATE=%year%" -T "TRACKNUMBER=%tracknr%" -T "GENRE=%genre%" -T "PERFORMER=%albuminterpret%" -T "COMPOSER=%composer%" %haslyrics%--tag-from-file=LYRICS="%lyricsfile%"%haslyrics% -T "ALBUMARTIST=%albumartist%" -T "DISCNUMBER=%cdnumber%" -T "TOTALDISCS=%totalcds%" -T "TOTALTRACKS=%numtracks%" -T "COMMENT=%comment%" %source% -o %dest%


TOC of the extracted CD

     Track |   Start  |  Length  | Start sector | End sector 
    ---------------------------------------------------------
        1  |  0:00.00 |  7:00.22 |         0    |    31521   
        2  |  7:00.22 |  3:00.48 |     31522    |    45069   
        3  | 10:00.70 |  4:14.32 |     45070    |    64151   
        4  | 14:15.27 |  3:41.30 |     64152    |    80756   
        5  | 17:56.57 |  2:56.40 |     80757    |    93996   
        6  | 20:53.22 |  3:33.58 |     93997    |   110029   
        7  | 24:27.05 |  3:50.55 |    110030    |   127334   
        8  | 28:17.60 |  4:49.22 |    127335    |   149031   
        9  | 33:07.07 |  4:03.48 |    149032    |   167304   
       10  | 37:10.55 |  3:42.10 |    167305    |   183964   
       11  | 40:52.65 |  3:46.22 |    183965    |   200936   
       12  | 44:39.12 |  2:56.05 |    200937    |   214141   
       13  | 47:35.17 |  3:40.15 |    214142    |   230656   
       14  | 51:15.32 |  4:03.25 |    230657    |   248906   
       15  | 55:18.57 |  3:09.68 |    248907    |   263149   
       16  | 58:28.50 |  3:39.02 |    263150    |   279576   
       17  | 62:07.52 |  3:00.35 |    279577    |   293111   
       18  | 65:08.12 |  4:30.73 |    293112    |   313434   
       19  | 69:39.10 |  4:05.37 |    313435    |   331846   
       20  | 73:44.47 |  3:09.22 |    331847    |   346043   


Track  1

     Filename R:\EAC\01 Carpenters Medley.wav

     Pre-gap length  0:00:02.00

     Peak level 91.3 %
     Extraction speed 8.0 X
     Track quality 100.0 %
     Test CRC 3039E4E6
     Copy CRC 3039E4E6
     Accurately ripped (confidence 2)  [512D4756]  (AR v2)
     Copy OK

Track  2

     Filename R:\EAC\02 Somewhere.wav

     Pre-gap length  0:00:02.12

     Peak level 90.6 %
     Extraction speed 7.6 X
     Track quality 100.0 %
     Test CRC 459B549A
     Copy CRC 459B549A
     Accurately ripped (confidence 2)  [02E3B07B]  (AR v2)
     Copy OK

Track  3

     Filename R:\EAC\03 Summer Mist.wav

     Pre-gap length  0:00:01.58

     Peak level 96.6 %
     Extraction speed 8.7 X
     Track quality 100.0 %
     Test CRC 9D86E550
     Copy CRC 9D86E550
     Accurately ripped (confidence 2)  [B31BB9FD]  (AR v2)
     Copy OK

Track  4

     Filename R:\EAC\04 Music Of The Night.wav

     Pre-gap length  0:00:01.65

     Peak level 95.8 %
     Extraction speed 9.0 X
     Track quality 100.0 %
     Test CRC 5382BD27
     Copy CRC 5382BD27
     Accurately ripped (confidence 2)  [2851D122]  (AR v2)
     Copy OK

Track  5

     Filename R:\EAC\05 He Way We Were.wav

     Pre-gap length  0:00:02.15

     Peak level 89.6 %
     Extraction speed 6.4 X
     Track quality 99.8 %
     Test CRC 8CF0205D
     Copy CRC 8CF0205D
     Accurately ripped (confidence 2)  [0761852A]  (AR v2)
     Copy OK

Track  6

     Filename R:\EAC\06 Theme From Lloyd George.wav

     Pre-gap length  0:00:01.65

     Peak level 100.0 %
     Extraction speed 9.7 X
     Track quality 100.0 %
     Test CRC BEED6EF4
     Copy CRC BEED6EF4
     Accurately ripped (confidence 2)  [F2E34117]  (AR v2)
     Copy OK

Track  7

     Filename R:\EAC\07 Against All Odds.wav

     Pre-gap length  0:00:02.43

     Peak level 87.8 %
     Extraction speed 10.1 X
     Track quality 100.0 %
     Test CRC 84BC42C6
     Copy CRC 84BC42C6
     Accurately ripped (confidence 2)  [EC58A187]  (AR v2)
     Copy OK

Track  8

     Filename R:\EAC\08 Didn't We Almost Have It All.wav

     Pre-gap length  0:00:02.08

     Peak level 87.5 %
     Extraction speed 11.1 X
     Track quality 100.0 %
     Test CRC E1A631CF
     Copy CRC E1A631CF
     Accurately ripped (confidence 2)  [3C3914F7]  (AR v2)
     Copy OK

Track  9

     Filename R:\EAC\09 People.wav

     Pre-gap length  0:00:01.52

     Peak level 76.1 %
     Extraction speed 11.2 X
     Track quality 100.0 %
     Test CRC 0FC7836E
     Copy CRC 0FC7836E
     Accurately ripped (confidence 2)  [FCB8BE0B]  (AR v2)
     Copy OK

Track 10

     Filename R:\EAC\10 Lady.wav

     Pre-gap length  0:00:01.53

     Peak level 97.4 %
     Extraction speed 8.6 X
     Track quality 99.9 %
     Test CRC 0AF0855A
     Copy CRC 0AF0855A
     Accurately ripped (confidence 2)  [751C2FEB]  (AR v2)
     Copy OK

Track 11

     Filename R:\EAC\11 Someone To Watch Over Me.wav

     Pre-gap length  0:00:01.35

     Peak level 91.5 %
     Extraction speed 11.8 X
     Track quality 100.0 %
     Test CRC A4573DF7
     Copy CRC A4573DF7
     Accurately ripped (confidence 2)  [16C58511]  (AR v2)
     Copy OK

Track 12

     Filename R:\EAC\12 Tonight I Celebrate My Love.wav

     Pre-gap length  0:00:01.42

     Peak level 92.6 %
     Extraction speed 11.4 X
     Track quality 100.0 %
     Test CRC 42D40470
     Copy CRC 42D40470
     Accurately ripped (confidence 2)  [38D9B511]  (AR v2)
     Copy OK

Track 13

     Filename R:\EAC\13 Making Love.wav

     Pre-gap length  0:00:01.45

     Peak level 90.5 %
     Extraction speed 9.1 X
     Track quality 99.9 %
     Test CRC 55C0AB64
     Copy CRC 55C0AB64
     Accurately ripped (confidence 2)  [F3D82F2C]  (AR v2)
     Copy OK

Track 14

     Filename R:\EAC\14 Piano By Candlelight.wav

     Pre-gap length  0:00:01.45

     Peak level 100.0 %
     Extraction speed 12.8 X
     Track quality 100.0 %
     Test CRC 849DF9F8
     Copy CRC 849DF9F8
     Accurately ripped (confidence 2)  [8772D2EB]  (AR v2)
     Copy OK

Track 15

     Filename R:\EAC\15 On My Own.wav

     Pre-gap length  0:00:01.57

     Peak level 98.8 %
     Extraction speed 9.1 X
     Track quality 99.8 %
     Test CRC B8794AF6
     Copy CRC B8794AF6
     Accurately ripped (confidence 2)  [E7ED4775]  (AR v2)
     Copy OK

Track 16

     Filename R:\EAC\16 Ole Devil Called Love.wav

     Pre-gap length  0:00:01.68

     Peak level 96.5 %
     Extraction speed 13.0 X
     Track quality 100.0 %
     Test CRC 77F7E68D
     Copy CRC 77F7E68D
     Accurately ripped (confidence 2)  [AAC5C219]  (AR v2)
     Copy OK

Track 17

     Filename R:\EAC\17 Theme From The Summer Of '42.wav

     Pre-gap length  0:00:02.00

     Peak level 98.8 %
     Extraction speed 12.7 X
     Track quality 100.0 %
     Test CRC B55FA5F5
     Copy CRC B55FA5F5
     Accurately ripped (confidence 2)  [52F3C39A]  (AR v2)
     Copy OK

Track 18

     Filename R:\EAC\18 Greatest Love Af All.wav

     Pre-gap length  0:00:01.45

     Peak level 98.6 %
     Extraction speed 14.2 X
     Track quality 100.0 %
     Test CRC 716AAA95
     Copy CRC 716AAA95
     Accurately ripped (confidence 2)  [CCD9DD24]  (AR v2)
     Copy OK

Track 19

     Filename R:\EAC\19 Dawn Of A Lifetime.wav

     Pre-gap length  0:00:01.68

     Peak level 92.0 %
     Extraction speed 14.3 X
     Track quality 100.0 %
     Test CRC 2B4D7598
     Copy CRC 2B4D7598
     Accurately ripped (confidence 2)  [7382662A]  (AR v2)
     Copy OK

Track 20

     Filename R:\EAC\20 Unchained Melody.wav

     Pre-gap length  0:00:01.37

     Peak level 96.8 %
     Extraction speed 9.1 X
     Track quality 99.8 %
     Test CRC 2823E3BD
     Copy CRC 2823E3BD
     Accurately ripped (confidence 2)  [A0432A2B]  (AR v2)
     Copy OK


All tracks accurately ripped

No errors occurred

End of status report

---- CUETools DB Plugin V2.1.6

[CTDB TOCID: bcCOBwwMMhkxLdHb_lbBls.qba0-] found
Submit result: bcCOBwwMMhkxLdHb_lbBls.qba0- has been confirmed
Track | CTDB Status
  1   | (8/9) Accurately ripped
  2   | (9/9) Accurately ripped
  3   | (9/9) Accurately ripped
  4   | (9/9) Accurately ripped
  5   | (9/9) Accurately ripped
  6   | (9/9) Accurately ripped
  7   | (9/9) Accurately ripped
  8   | (9/9) Accurately ripped
  9   | (9/9) Accurately ripped
 10   | (9/9) Accurately ripped
 11   | (9/9) Accurately ripped
 12   | (9/9) Accurately ripped
 13   | (9/9) Accurately ripped
 14   | (9/9) Accurately ripped
 15   | (9/9) Accurately ripped
 16   | (9/9) Accurately ripped
 17   | (9/9) Accurately ripped
 18   | (9/9) Accurately ripped
 19   | (9/9) Accurately ripped
 20   | (9/9) Accurately ripped


==== Log checksum 4AD62980AA26EE414279D12A1C0850AB85C42E1F0E8C02330256050E61551F4D ====

Post Reply