[ Fixed ] Cue sheet error : invalid index or time format

Tell us if the software is behaving badly

Moderator: poiko

Post Reply
crabby33
Bronze
Bronze
Posts: 11
Joined: Wed Feb 06, 2019 10:54 pm
Contact:

[ Fixed ] Cue sheet error : invalid index or time format

Post by crabby33 » Wed Apr 17, 2019 12:50 am

when I try to burn a ripped cd, the cue conte,nts 2 index by track with bad index as you can see here :

PERFORMER "Pet Shop Boys"
TITLE "Inner Sanctum Live (CD2)"
REM DATE "2019"
REM GENRE "Pop"
REM COMMENT "EZ CD Audio Converter 8.2.3 [64-bit]"
REM REPLAYGAIN_ALBUM_GAIN -8.85 dB
REM REPLAYGAIN_ALBUM_PEAK 0.992249
FILE "2019.flac" WAVE
TRACK 01 AUDIO
REM REPLAYGAIN_TRACK_GAIN -8.27 dB
REM REPLAYGAIN_TRACK_PEAK 0.987793
ISRC GBWWP1804599
TITLE "Home And Dry/The Enigma"
PREGAP 954437:10:45
INDEX 01 00:00:00
TRACK 02 AUDIO
REM REPLAYGAIN_TRACK_GAIN -8.98 dB
REM REPLAYGAIN_TRACK_PEAK 0.992249
ISRC GBWWP1804612
TITLE "Vocal/The Sodom And Gomorrah Show"
INDEX 00 07:39:44
INDEX 01 07:39:43
TRACK 03 AUDIO
REM REPLAYGAIN_TRACK_GAIN -9.09 dB
REM REPLAYGAIN_TRACK_PEAK 0.988281
ISRC GBWWP1804601
TITLE "It's A Sin"
INDEX 00 16:36:34
INDEX 01 16:36:33
TRACK 04 AUDIO
REM REPLAYGAIN_TRACK_GAIN -8.52 dB
REM REPLAYGAIN_TRACK_PEAK 0.989655
ISRC GBWWP1804602
TITLE "Left To My Own Devices"
INDEX 00 22:20:04
INDEX 01 22:20:03
TRACK 05 AUDIO
REM REPLAYGAIN_TRACK_GAIN -8.61 dB
REM REPLAYGAIN_TRACK_PEAK 0.989563
ISRC GBWWP1804598
TITLE "Heart/Go West"
INDEX 00 27:44:63
INDEX 01 27:44:62
TRACK 06 AUDIO
REM REPLAYGAIN_TRACK_GAIN -7.74 dB
REM REPLAYGAIN_TRACK_PEAK 0.988373
ISRC GBWWP1804597
TITLE "Domino Dancing"
INDEX 00 35:45:32
INDEX 01 35:45:31
TRACK 07 AUDIO
REM REPLAYGAIN_TRACK_GAIN -10.32 dB
REM REPLAYGAIN_TRACK_PEAK 0.988586
ISRC GBWWP1804596
TITLE "Always On My Mind"
INDEX 00 40:38:03
INDEX 01 40:38:02
TRACK 08 AUDIO
REM REPLAYGAIN_TRACK_GAIN -9.99 dB
REM REPLAYGAIN_TRACK_PEAK 0.988586
ISRC GBWWP1804610
TITLE "The Pop Kids (Reprise)"
INDEX 00 44:54:49
INDEX 01 44:54:48

User avatar
poiko
Site Admin
Site Admin
Posts: 3859
Joined: Sat Mar 11, 2006 8:31 pm
Location: https://www.poikosoft.com
Contact:

Re: cue sheet error : invalid index or time format

Post by poiko » Wed Apr 17, 2019 6:53 am

That is interesting. Can you post a screenshot of Audio CD Ripper list after pre-gap detecton ?

I will investigate what might be the source of the problem.

User avatar
poiko
Site Admin
Site Admin
Posts: 3859
Joined: Sat Mar 11, 2006 8:31 pm
Location: https://www.poikosoft.com
Contact:

Re: cue sheet error : invalid index or time format

Post by poiko » Wed Apr 17, 2019 6:57 am

It seems like all pre-gaps are -1 = they are not detected but default values. :shock: I will fix it. It must be related to the last update.

User avatar
poiko
Site Admin
Site Admin
Posts: 3859
Joined: Sat Mar 11, 2006 8:31 pm
Location: https://www.poikosoft.com
Contact:

Re: cue sheet error : invalid index or time format

Post by poiko » Wed Apr 17, 2019 8:39 am

My mistake :oops: . I've fixed it. I will have to release a bug-fixing update.

You can fix the cue sheet by deleting all the INDEX 00 lines.

User avatar
poiko
Site Admin
Site Admin
Posts: 3859
Joined: Sat Mar 11, 2006 8:31 pm
Location: https://www.poikosoft.com
Contact:

Re: [ Fixed ] Cue sheet error : invalid index or time format

Post by poiko » Wed Apr 17, 2019 4:37 pm

Fixed in v8.3. It was my mistake. Sorry about it. :mrgreen:

Had to do a quick release fix for this one.

crabby33
Bronze
Bronze
Posts: 11
Joined: Wed Feb 06, 2019 10:54 pm
Contact:

Re: [ Fixed ] Cue sheet error : invalid index or time format

Post by crabby33 » Thu Apr 18, 2019 9:30 pm

Hello Poiko,
Thank you so much : with update 8.3 it's working ! :D

crabby33
Bronze
Bronze
Posts: 11
Joined: Wed Feb 06, 2019 10:54 pm
Contact:

Re: [ Fixed ] Cue sheet error : invalid index or time format

Post by crabby33 » Thu Apr 18, 2019 9:42 pm

Thx you so much !
With update 8.3, it's working :D

Post Reply