CUE sheet for DSF loading error

Music Converter | CD Ripper | Disc Burner
General discussion / Request help

Moderator: poiko

Post Reply
Alendos
New User
Posts: 1
Joined: Thu Feb 11, 2021 6:33 pm
Contact:

CUE sheet for DSF loading error

Post by Alendos » Thu Feb 11, 2021 6:39 pm

I have a file, when i'm loading it to converter, it displays error. I've fixed it on line 22. But then it warns about wrong time on line 41 and i have no idea what's wrong. I believe its a converter bug, because my player plays it fine...

Code: Select all

PERFORMER "Bee Gees"
TITLE "Bee Gees Greatest"
FILE "Side_1.dsf" WAVE
  TRACK 01 AUDIO
    TITLE "Jive Talking"
    INDEX 01 00:00:00
  TRACK 02 AUDIO
    TITLE "Night Fever"
    INDEX 01 03:46:00
  TRACK 03 AUDIO
    TITLE "Tragedy"
    INDEX 01 07:19:00
  TRACK 04 AUDIO
    TITLE "You Should Be Dancing"
    INDEX 01 12:23:00
  TRACK 05 AUDIO
    TITLE "Staying Alive"
    INDEX 01 16:39:50
FILE "Side_2.dsf" WAVE
  TRACK 06 AUDIO
    TITLE "How Deep Is Your Love"
    INDEX 01 00:02:00
  TRACK 07 AUDIO
    TITLE "Love So Right"
    INDEX 01 04:07:50
  TRACK 08 AUDIO
    TITLE "Too Much Heaven"
    INDEX 01 07:43:50
  TRACK 09 AUDIO
    TITLE "(Our Love) Don't Trow It All Away"
    INDEX 01 12:41:00
  TRACK 10 AUDIO
    TITLE "Fanny (Be Tender With My Love)"
    INDEX 01 16:47:50
FILE "Side_3.dsf" WAVE
  TRACK 11 AUDIO
    TITLE "If I Can't Have You"
    INDEX 01 00:00:00
  TRACK 12 AUDIO
    TITLE "You Stepped Into My Life"
    INDEX 01 03:22:90
  TRACK 13 AUDIO
    TITLE "Love Me"
    INDEX 01 06:51:00
  TRACK 14 AUDIO
    TITLE "More Than A Woman"
    INDEX 01 10:51:70
  TRACK 15 AUDIO
    TITLE "Rest Your Love On Me"
    INDEX 01 14:08:70
FILE "Side_4.dsf" WAVE
  TRACK 16 AUDIO
    TITLE "Nights On Broadway"
    INDEX 01 00:00:00
  TRACK 17 AUDIO
    TITLE "Spirits (Having Flown)"
    INDEX 01 04:35:70
  TRACK 18 AUDIO
    TITLE "Love You Inside Out"
    INDEX 01 09:48:00
  TRACK 19 AUDIO
    TITLE "Wind Of Change"
    INDEX 01 13:59:50
  TRACK 20 AUDIO
    TITLE "Children Of The World"
    INDEX 01 18:55:30

User avatar
poiko
Site Admin
Site Admin
Posts: 4329
Joined: Sat Mar 11, 2006 8:31 pm
Location: https://www.poikosoft.com
Contact:

Re: CUE sheet for DSF loading error

Post by poiko » Mon Feb 15, 2021 9:26 am

Time is wrong;
03:22:90

Format is mm:ss:ff
Minutes/Seconds/Frames

Max frame number on an audio CD is 74.

Your Cue Sheet has invalid times.

Post Reply